Jump to content

Enya - Dark Sky Island (2015)


Pachino

Recommended Posts

Enya - Dark Sky Island (2015)

EmDSI15.jpg


Artist: Enya
Album: Dark Sky Island
Genre: Pop, New Age
Released: 2015
Quality: MP3
Bitrate: 320Kbps
Total Size: 101 MB

After 75 million sales; four Grammy Awards; six World Music Awards; an Ivor Novello, an Oscar nomination, a Golden Globe nomination; and seven studio albums (plus the ‘Paint The Sky With Stars’ compilation) which have hit the upper echelons of charts all over the world, Enya will embark upon a new chapter in her spectacular career with the November 20th release of her new album Dark Sky Island.


Enya - The Humming ...

Tracklist:
01. The Humming
02. So I Could Find My Way
03. Even In The Shadows
04. The Forge Of Angels
05. Echoes In Rain
06. I Could Never Say Goodbye
07. Dark Sky Island
08. Sancta Maria
09. Astra Et Luna
10. The Loxian Gate
11. Diamonds On The Water

Download:

Hidden Content

    Give reaction to this post to see the hidden content.

Access password: Pachino

Pachino

Edited by BamSec1
BamSec1... Fixed: Picture and Video.
  • Like 7
  • Thanks 3
Link to comment
Thank you so much my dearest friend Sir BamSec1, very sweet of you indeed!
 
Enya - Dark Sky Island (Deluxe Edition) (2015)
 

 

Pachino

All links dead.

Edited by BamSec1
BamSec1... Removed: Dead Link(s)
  • Like 4
Link to comment
  • Administrator

Enya - Dark Sky Island (Deluxe Edition) (2015) [FLAC-24]

 

Log:

Spoiler

foobar2000 1.3.8 / Dynamic Range Meter 1.1.1
log date: 2015-11-21 20:28:27

--------------------------------------------------------------------------------
Analyzed: Enya / Dark Sky Island (Deluxe)
--------------------------------------------------------------------------------

DR         Peak         RMS     Duration Track
--------------------------------------------------------------------------------
DR8       -1.03 dB   -10.95 dB      3:45 01-The Humming...
DR9       -0.03 dB   -11.56 dB      4:26 02-So I Could Find My Way
DR7       -0.03 dB    -9.70 dB      4:14 03-Even In The Shadows
DR9       -0.03 dB   -10.99 dB      5:14 04-The Forge Of The Angels
DR8       -0.03 dB    -9.82 dB      3:35 05-Echoes In Rain
DR12      -0.04 dB   -15.93 dB      3:30 06-I Could Never Say Goodbye
DR8       -0.03 dB   -10.73 dB      4:57 07-Dark Sky Island
DR7       -0.03 dB    -9.63 dB      3:52 08-Sancta Maria
DR9       -0.03 dB   -12.22 dB      3:21 09-Astra Et Luna
DR7       -0.03 dB    -9.01 dB      3:35 10-The Loxian Gate
DR9       -0.03 dB   -12.27 dB      3:35 11-Diamonds On The Water
DR11      -0.04 dB   -13.38 dB      3:59 12-Solace
DR8       -0.04 dB   -11.19 dB      3:34 13-Pale Grass Blue
DR9       -0.03 dB   -11.63 dB      2:58 14-Remember Your Smile
--------------------------------------------------------------------------------

Number of tracks:  14
Official DR value: DR9

Samplerate:        96000 Hz
Channels:          2
Bits per sample:   24
Bitrate:           2792 kbps
Codec:             FLAC
================================================================================

 

Uptobox/uploaded/userclous.net/1fichier/filesupload/multiup = all links dead.

pass: forum-andr.net

 

Enya - Dark Sky Island (Deluxe Edition) (2015) [FLAC]

 

Log:

Spoiler

Exact Audio Copy V1.0 beta 1 from 15. November 2010

EAC extraction logfile from 19. November 2015, 19:17

Enya / Dark Sky Island (Deluxe)

Used drive  : Optiarc DVD RW AD-7203A   Adapter: 4  ID: 1

Read mode               : Secure
Utilize accurate stream : Yes
Defeat audio cache      : Yes
Make use of C2 pointers : No

Read offset correction                      : 48
Overread into Lead-In and Lead-Out          : No
Fill up missing offset samples with silence : Yes
Delete leading and trailing silent blocks   : No
Null samples used in CRC calculations       : Yes
Used interface                              : Native Win32 interface for Win NT & 2000

Used output format              : User Defined Encoder
Selected bitrate                : 128 kBit/s
Quality                         : High
Add ID3 tag                     : No
Command line compressor         : C:\Program Files\FLAC\flac.exe
Additional command line options : -T "COMMENT=Ripped by GFox" -8 -V %s


TOC of the extracted CD

     Track |   Start  |  Length  | Start sector | End sector 
    ---------------------------------------------------------
        1  |  0:00.00 |  3:45.09 |         0    |    16883   
        2  |  3:45.09 |  4:25.72 |     16884    |    36830   
        3  |  8:11.06 |  4:14.18 |     36831    |    55898   
        4  | 12:25.24 |  5:14.15 |     55899    |    79463   
        5  | 17:39.39 |  3:35.34 |     79464    |    95622   
        6  | 21:14.73 |  3:29.71 |     95623    |   111368   
        7  | 24:44.69 |  4:57.33 |    111369    |   133676   
        8  | 29:42.27 |  3:51.48 |    133677    |   151049   
        9  | 33:34.00 |  3:21.07 |    151050    |   166131   
       10  | 36:55.07 |  3:34.66 |    166132    |   182247   
       11  | 40:29.73 |  3:35.29 |    182248    |   198401   
       12  | 44:05.27 |  3:58.50 |    198402    |   216301   
       13  | 48:04.02 |  3:34.35 |    216302    |   232386   
       14  | 51:38.37 |  2:57.65 |    232387    |   245726   


Range status and errors

Selected range

     Filename D:\EAC\Enya - Dark Sky Island (Deluxe).wav

     Peak level 99.9 %
     Extraction speed 0.2 X
     Range quality 100.0 %
     Test CRC 11BB293F
     Copy CRC 11BB293F
     Copy OK

No errors occurred

 
AccurateRip summary
 
Track  1  not present in database
Track  2  not present in database
Track  3  not present in database
Track  4  not present in database
Track  5  not present in database
Track  6  not present in database
Track  7  not present in database
Track  8  not present in database
Track  9  not present in database
Track 10  not present in database
Track 11  not present in database
Track 12  not present in database
Track 13  not present in database
Track 14  not present in database
 
None of the tracks are present in the AccurateRip database

End of status report

==== Log checksum A03C1CD4FCEEBFF61DAEF2EB5BD51F93195EAB24E5A6961F530FDFC38D717A20 ====
 

openload/solidfiles = dead links

pass: forum-andr.net

Edited by BamSec1
BamSec1... Removed: Dead Link(s)
  • Like 5
Link to comment
  • SuperModerator

Mirror(s): (For my friend ... Sir Pachino)

Enya - Echo in Rain

IMPORTANT!
To avoid pop-up/pop-under windows from the MirrorCreator site:
1. Right-click on the host you want to download from and select "Open in a new tab"
2. Right-Click again on the provided link and select again "Open in a new Tab"
3. Download from the host and close the 2 previously opened windows.
Doing so you will almost never have pop-up/pop-under windows.

HINT ... if you download from zippyshare
If Firefox is your browser, then right-click on the [DOWNLOAD] button and select "Save Link As..."
You won't have any pop-up window at all!

     ●

Hidden Content

    Give reaction to this post to see the hidden content.

        Password: forum-andr.net

Cheers, :hi:
Bam

  • Like 3
  • Thanks 1
Link to comment

Please sign in to comment

You will be able to leave a comment after signing in



Sign In Now
×
×
  • Create New...